Akzeptiert Angebote

ALEJANDRO SANZ - MTV UNPLUGGED - CD - 2001 - DISCO VERIFICADO

Versand ab 5,50€
Zahlung tc Akzeptiert Zahlung tc

Anzahl der Artikel: 1

Zustand des Artikels: Normal (mit normalen Gebrauchsspuren)

El disco tiene marcas importantes pero se ha verificado con precisión con el programa informático Exact Audio Copy (ver informe al final)

+++

Bajo ningún concepto se envía ordinario, todos los envíos son certificados

Gastos de envío gratis para pedidos superiores a 30 euros con destino a España peninsular

Vea coste de envío en el apartado "Formas de pago y envío"

Fotos reales del artículo

+++

Exact Audio Copy V1.6 from 23. October 2020

Archivo Log de extracciones desde 10. Septiembre 2021, 20:13

Alejandro Sanz / MTV Unplugged

Usar unidad : hp DVDRAM GU90N Adapter: 1 ID: 0

Modo de Lectura : : Seguro

Utilizar corriente precisa : Sí

Caché de audio por defecto : No

Utilizar los punteros C2 : No

Corrección de Desplazamiento de Lectura : : 102

Sobreleer tanto en Lead-In como en Lead-Out : No

Rellenar las muestras faltantes con silencios : Sí

Eliminar silencios inicial y final : No

Muestras nulas usadas en los calculos de CRC : Sí

Interfaz usada : Interfaz propio de Win32 para Windowns NT y 2000

Manejo de huecos : No se detectó, por lo que anexa a la pista anterior

Formato de Salida utilizado : : Rutinas WAV Internas

Formato de muestra : 44.100 Hz; 16 Bit; Estéreo

TOC extraídos del CD

Pista | Inicio | Longitud | Inicio del sector | Fin del sector

------------------------------------------------------------------

1 | 0:00.00 | 5:06.15 | 0 | 22964

2 | 5:06.15 | 4:35.02 | 22965 | 43591

3 | 9:41.17 | 5:03.43 | 43592 | 66359

4 | 14:44.60 | 5:13.32 | 66360 | 89866

5 | 19:58.17 | 4:41.68 | 89867 | 111009

6 | 24:40.10 | 5:02.35 | 111010 | 133694

7 | 29:42.45 | 4:29.17 | 133695 | 153886

8 | 34:11.62 | 4:25.65 | 153887 | 173826

9 | 38:37.52 | 5:00.10 | 173827 | 196336

10 | 43:37.62 | 4:50.28 | 196337 | 218114

11 | 48:28.15 | 4:13.00 | 218115 | 237089

12 | 52:41.15 | 5:24.00 | 237090 | 261389

13 | 58:05.15 | 4:26.27 | 261390 | 281366

Pista 1

Nombre de Archivo 01. Cuando nadie me ve.wav

Nivel Pico 100.0 %

Velocidad de extracción 4.5 X

Calidad de Pista 100.0 %

Comprobación CRC AC15205B

Copiar CRC AC15205B

Extraida con precisión (confidencia 9) [EEA498BA] (AR v2)

Copia OK

Pista 2

Nombre de Archivo 02. Y sólo se me ocurre amarte.wav

Nivel Pico 98.8 %

Velocidad de extracción 5.1 X

Calidad de Pista 100.0 %

Comprobación CRC 8E67F4BB

Copiar CRC 8E67F4BB

Extraida con precisión (confidencia 9) [BC09EA03] (AR v2)

Copia OK

Pista 3

Nombre de Archivo 03. Amiga mía.wav

Nivel Pico 100.0 %

Velocidad de extracción 5.3 X

Calidad de Pista 100.0 %

Comprobación CRC 2AF8A7D3

Copiar CRC 2AF8A7D3

Extraida con precisión (confidencia 9) [06BED527] (AR v2)

Copia OK

Pista 4

Nombre de Archivo 04. Se le apagó la luz.wav

Nivel Pico 100.0 %

Velocidad de extracción 5.7 X

Calidad de Pista 100.0 %

Comprobación CRC 1B665E19

Copiar CRC 1B665E19

Extraida con precisión (confidencia 9) [1DAEE42F] (AR v2)

Copia OK

Pista 5

Nombre de Archivo 05. Quisiera ser.wav

Nivel Pico 100.0 %

Velocidad de extracción 6.0 X

Calidad de Pista 100.0 %

Comprobación CRC A2DF6C54

Copiar CRC A2DF6C54

Extraida con precisión (confidencia 9) [BF18C939] (AR v2)

Copia OK

Pista 6

Nombre de Archivo 06. Aprendiz.wav

Nivel Pico 98.8 %

Velocidad de extracción 5.7 X

Calidad de Pista 99.9 %

Comprobación CRC 266BB95F

Copiar CRC 266BB95F

Extraida con precisión (confidencia 9) [28577784] (AR v2)

Copia OK

Pista 7

Nombre de Archivo 07. Quiero morir en tu veneno.wav

Nivel Pico 98.8 %

Velocidad de extracción 5.9 X

Calidad de Pista 99.9 %

Comprobación CRC 26EAB481

Copiar CRC 26EAB481

Extraida con precisión (confidencia 9) [DF708752] (AR v2)

Copia OK

Pista 8

Nombre de Archivo 08. Cómo te echo de menos.wav

Nivel Pico 100.0 %

Velocidad de extracción 6.6 X

Calidad de Pista 100.0 %

Comprobación CRC 3EAD389E

Copiar CRC 3EAD389E

Extraida con precisión (confidencia 9) [88C12968] (AR v2)

Copia OK

Pista 9

Nombre de Archivo 09. Corazón partío.wav

Nivel Pico 100.0 %

Velocidad de extracción 6.3 X

Calidad de Pista 99.9 %

Comprobación CRC 08813C2B

Copiar CRC 08813C2B

Extraida con precisión (confidencia 9) [FB88B2A7] (AR v2)

Copia OK

Pista 10

Nombre de Archivo 10. Siempre es de noche.wav

Nivel Pico 100.0 %

Velocidad de extracción 7.1 X

Calidad de Pista 100.0 %

Comprobación CRC CA4BF2F8

Copiar CRC CA4BF2F8

Extraida con precisión (confidencia 9) [8ED7B052] (AR v2)

Copia OK

Pista 11

Nombre de Archivo 11. Toca para mí.wav

Nivel Pico 98.8 %

Velocidad de extracción 7.4 X

Calidad de Pista 100.0 %

Comprobación CRC D4CCAEE3

Copiar CRC D4CCAEE3

Extraida con precisión (confidencia 9) [07786275] (AR v2)

Copia OK

Pista 12

Nombre de Archivo 12. Lo que fui es lo que soy.wav

Nivel Pico 98.8 %

Velocidad de extracción 6.9 X

Calidad de Pista 99.9 %

Comprobación CRC 6307105E

Copiar CRC 6307105E

Extraida con precisión (confidencia 9) [560A46F5] (AR v2)

Copia OK

Pista 13

Nombre de Archivo 13. Todo es de color.wav

Nivel Pico 98.8 %

Velocidad de extracción 7.8 X

Calidad de Pista 100.0 %

Comprobación CRC EB1D5A34

Copiar CRC EB1D5A34

Extraida con precisión (confidencia 9) [9157370E] (AR v2)

Copia OK

Todas las pistas extraidas con precisión

Sin Errores

Final del Informe

---- CUETools DB Plugin V2.1.6

[CTDB TOCID: IbSu3NZ56uTwfb58azLldIKIbtA-] found

Submit result: IbSu3NZ56uTwfb58azLldIKIbtA- has been confirmed

Track | CTDB Status

1 | (38/40) Accurately ripped

2 | (38/40) Accurately ripped

3 | (38/40) Accurately ripped

4 | (38/40) Accurately ripped

5 | (38/40) Accurately ripped

6 | (38/40) Accurately ripped

7 | (38/40) Accurately ripped

8 | (38/40) Accurately ripped

9 | (38/40) Accurately ripped

10 | (38/40) Accurately ripped

11 | (37/40) Accurately ripped

12 | (35/40) Accurately ripped

13 | (38/40) Accurately ripped

avatar gilypo
Vom 19/11/2014
Spanien (Cantabria)
Verkäufer als Privatperson registriert.