Akzeptiert Angebote

AMISTADES PELIGROSAS - RELATOS DE UNA INTRIGA - CD - 1991 - DISCO VERIFICADO

Versand ab 5,50€
Zahlung tc Akzeptiert Zahlung tc

Anzahl der Artikel: 1

Zustand des Artikels: Normal (mit normalen Gebrauchsspuren)

El disco tiene pocas marcas y se ha leído con precisión con el programa Exact Audio Copy (ver informe al final)

+++

Bajo ningún concepto se envía ordinario, todos los envíos son certificados

Gastos de envío gratis para pedidos superiores a 30 euros con destino a España peninsular

Vea coste de envío en el apartado "Formas de pago y envío"

Fotos reales del artículo

+++

Exact Audio Copy V1.6 from 23. October 2020

Archivo Log de extracciones desde 4. Enero 2023, 21:32

Amistades Peligrosas / Relatos de una intriga

Usar unidad : hp DVDRAM GU90N Adapter: 1 ID: 0

Modo de Lectura : : Seguro

Utilizar corriente precisa : Sí

Caché de audio por defecto : No

Utilizar los punteros C2 : Sí

Corrección de Desplazamiento de Lectura : : 102

Sobreleer tanto en Lead-In como en Lead-Out : No

Rellenar las muestras faltantes con silencios : Sí

Eliminar silencios inicial y final : No

Muestras nulas usadas en los calculos de CRC : Sí

Interfaz usada : Interfaz propio de Win32 para Windowns NT y 2000

Manejo de huecos : No se detectó, por lo que anexa a la pista anterior

Formato de Salida utilizado : : Rutinas WAV Internas

Formato de muestra : 44.100 Hz; 16 Bit; Estéreo

TOC extraídos del CD

Pista | Inicio | Longitud | Inicio del sector | Fin del sector

------------------------------------------------------------------

1 | 0:00.32 | 4:44.05 | 32 | 21336

2 | 4:44.37 | 4:13.50 | 21337 | 40361

3 | 8:58.12 | 3:13.13 | 40362 | 54849

4 | 12:11.25 | 2:59.32 | 54850 | 68306

5 | 15:10.57 | 3:37.43 | 68307 | 84624

6 | 18:48.25 | 3:20.37 | 84625 | 99661

7 | 22:08.62 | 3:01.55 | 99662 | 113291

8 | 25:10.42 | 3:56.43 | 113292 | 131034

9 | 29:07.10 | 3:46.57 | 131035 | 148041

10 | 32:53.67 | 3:04.00 | 148042 | 161841

Pista 1

Nombre de Archivo 01. Estoy por ti.wav

Nivel Pico 95.7 %

Velocidad de extracción 4.8 X

Calidad de Pista 100.0 %

Comprobación CRC C2B9E5AF

Copiar CRC C2B9E5AF

Extraida con precisión (confidencia 2) [7C266884] (AR v2)

Copia OK

Pista 2

Nombre de Archivo 02. Muy peligroso.wav

Nivel Pico 98.6 %

Velocidad de extracción 5.1 X

Calidad de Pista 99.9 %

Comprobación CRC 21427915

Copiar CRC 21427915

Extraida con precisión (confidencia 2) [0B3EF02A] (AR v2)

Copia OK

Pista 3

Nombre de Archivo 03. No tienes perdón.wav

Nivel Pico 96.0 %

Velocidad de extracción 5.8 X

Calidad de Pista 100.0 %

Comprobación CRC FB711CEC

Copiar CRC FB711CEC

Extraida con precisión (confidencia 2) [C78599D6] (AR v2)

Copia OK

Pista 4

Nombre de Archivo 04. En cualquier lugar.wav

Nivel Pico 86.4 %

Velocidad de extracción 6.2 X

Calidad de Pista 100.0 %

Comprobación CRC 0FF89ED6

Copiar CRC 0FF89ED6

Extraida con precisión (confidencia 2) [7291E95E] (AR v2)

Copia OK

Pista 5

Nombre de Archivo 05. Hágase tu voluntad.wav

Nivel Pico 93.6 %

Velocidad de extracción 6.2 X

Calidad de Pista 100.0 %

Comprobación CRC 5808B77C

Copiar CRC 5808B77C

Extraida con precisión (confidencia 2) [A402E0E4] (AR v2)

Copia OK

Pista 6

Nombre de Archivo 06. Africanos en Madrid.wav

Nivel Pico 95.4 %

Velocidad de extracción 6.9 X

Calidad de Pista 100.0 %

Comprobación CRC 96BD154E

Copiar CRC 96BD154E

Extraida con precisión (confidencia 2) [5EBEE203] (AR v2)

Copia OK

Pista 7

Nombre de Archivo 07. Sólo pienso en ti.wav

Nivel Pico 98.4 %

Velocidad de extracción 7.2 X

Calidad de Pista 100.0 %

Comprobación CRC 5A7A2C8F

Copiar CRC 5A7A2C8F

Extraida con precisión (confidencia 2) [5238228E] (AR v2)

Copia OK

Pista 8

Nombre de Archivo 08. Fe.wav

Nivel Pico 96.0 %

Velocidad de extracción 7.6 X

Calidad de Pista 100.0 %

Comprobación CRC 5E0CB37E

Copiar CRC 5E0CB37E

Extraida con precisión (confidencia 2) [22C7CBDB] (AR v2)

Copia OK

Pista 9

Nombre de Archivo 09. Duermevela.wav

Nivel Pico 88.7 %

Velocidad de extracción 7.5 X

Calidad de Pista 100.0 %

Comprobación CRC 3252BEDF

Copiar CRC 3252BEDF

Extraida con precisión (confidencia 2) [ED483BC4] (AR v2)

Copia OK

Pista 10

Nombre de Archivo 10. La hora de la verdad.wav

Nivel Pico 94.9 %

Velocidad de extracción 8.2 X

Calidad de Pista 100.0 %

Comprobación CRC D6C3D750

Copiar CRC D6C3D750

Extraida con precisión (confidencia 2) [AD7774BF] (AR v2)

Copia OK

Todas las pistas extraidas con precisión

Sin Errores

Final del Informe

---- CUETools DB Plugin V2.1.6

[CTDB TOCID: V9CxeDajXtyyR71__f20An_T10s-] found

Submit result: V9CxeDajXtyyR71__f20An_T10s- has been confirmed

Track | CTDB Status

1 | (32/34) Accurately ripped

2 | (34/34) Accurately ripped

3 | (32/34) Accurately ripped

4 | (34/34) Accurately ripped

5 | (33/34) Accurately ripped

6 | (34/34) Accurately ripped

7 | (33/34) Accurately ripped

8 | (33/34) Accurately ripped

9 | (34/34) Accurately ripped

10 | (33/34) Accurately ripped

avatar gilypo
Vom 19/11/2014
Spanien (Cantabria)
Verkäufer als Privatperson registriert.