Akzeptiert Angebote

BARBRA STREISAND - GUILTY - 2005 - CD + DVD - EDICION ESPECIAL CON DVD -DISCOS VERIFICADOS- BARBARA

Versand ab 5,50€
Zahlung tc Akzeptiert Zahlung tc

Anzahl der Artikel: 1

Zustand des Artikels: Normal (mit normalen Gebrauchsspuren)

El disco de audio tiene marcas pero se ha verificado con precisión con el programa informático Exact Audio Copy (ver informe al final); el dvd se ha copiado íntegramente al disco duro sin problemas de lectura y se ha reproducido aleatoriamente algún contenido sin incidencias

+++

Bajo ningún concepto se envía ordinario, todos los envíos son certificados

Gastos de envío gratis para pedidos superiores a 30 euros con destino a España peninsular

Vea coste de envío en el apartado "Formas de pago y envío"

Fotos reales del artículo

+++

Exact Audio Copy V1.6 from 23. October 2020

Archivo Log de extracciones desde 31. Julio 2022, 17:46

Barbra Streisand / Guilty

Usar unidad : hp DVDRAM GU90N Adapter: 1 ID: 0

Modo de Lectura : : Seguro

Utilizar corriente precisa : Sí

Caché de audio por defecto : No

Utilizar los punteros C2 : Sí

Corrección de Desplazamiento de Lectura : : 102

Sobreleer tanto en Lead-In como en Lead-Out : No

Rellenar las muestras faltantes con silencios : Sí

Eliminar silencios inicial y final : No

Muestras nulas usadas en los calculos de CRC : Sí

Interfaz usada : Interfaz propio de Win32 para Windowns NT y 2000

Manejo de huecos : No se detectó, por lo que anexa a la pista anterior

Formato de Salida utilizado : : Rutinas WAV Internas

Formato de muestra : 44.100 Hz; 16 Bit; Estéreo

TOC extraídos del CD

Pista | Inicio | Longitud | Inicio del sector | Fin del sector

------------------------------------------------------------------

1 | 0:00.00 | 4:26.37 | 0 | 19986

2 | 4:26.37 | 3:53.30 | 19987 | 37491

3 | 8:19.67 | 4:08.55 | 37492 | 56146

4 | 12:28.47 | 4:23.03 | 56147 | 75874

5 | 16:51.50 | 5:08.65 | 75875 | 99039

6 | 22:00.40 | 4:07.12 | 99040 | 117576

7 | 26:07.52 | 4:37.68 | 117577 | 138419

8 | 30:45.45 | 3:44.32 | 138420 | 155251

9 | 34:30.02 | 7:32.58 | 155252 | 189209

Pista 1

Nombre de Archivo 01. Guilty.wav

Nivel Pico 94.3 %

Velocidad de extracción 9.3 X

Calidad de Pista 100.0 %

Comprobación CRC A1BE12E8

Copiar CRC A1BE12E8

Extraida con precisión (confidencia 39) [45959EC9] (AR v2)

Copia OK

Pista 2

Nombre de Archivo 02. Woman in Love.wav

Nivel Pico 94.3 %

Velocidad de extracción 10.4 X

Calidad de Pista 100.0 %

Comprobación CRC 7ED717FD

Copiar CRC 7ED717FD

Extraida con precisión (confidencia 39) [D4D9DFCA] (AR v2)

Copia OK

Pista 3

Nombre de Archivo 03. Run Wild.wav

Nivel Pico 96.5 %

Velocidad de extracción 10.1 X

Calidad de Pista 100.0 %

Comprobación CRC 778BD3ED

Copiar CRC 778BD3ED

Extraida con precisión (confidencia 39) [B7FE4A4D] (AR v2)

Copia OK

Pista 4

Nombre de Archivo 04. Promises.wav

Nivel Pico 95.4 %

Velocidad de extracción 10.3 X

Calidad de Pista 100.0 %

Comprobación CRC 89BF00F0

Copiar CRC 89BF00F0

Extraida con precisión (confidencia 39) [81DAC73B] (AR v2)

Copia OK

Pista 5

Nombre de Archivo 05. The Love Inside.wav

Nivel Pico 96.5 %

Velocidad de extracción 11.2 X

Calidad de Pista 100.0 %

Comprobación CRC 046BCAB1

Copiar CRC 046BCAB1

Extraida con precisión (confidencia 39) [967687DD] (AR v2)

Copia OK

Pista 6

Nombre de Archivo 06. What Kind of Fool.wav

Nivel Pico 96.5 %

Velocidad de extracción 11.0 X

Calidad de Pista 100.0 %

Comprobación CRC 307E2A46

Copiar CRC 307E2A46

Extraida con precisión (confidencia 39) [FF0B969E] (AR v2)

Copia OK

Pista 7

Nombre de Archivo 07. Life Story.wav

Nivel Pico 96.5 %

Velocidad de extracción 11.8 X

Calidad de Pista 100.0 %

Comprobación CRC 3DAC8DC0

Copiar CRC 3DAC8DC0

Extraida con precisión (confidencia 39) [CA770538] (AR v2)

Copia OK

Pista 8

Nombre de Archivo 08. Never Give Up.wav

Nivel Pico 96.5 %

Velocidad de extracción 12.3 X

Calidad de Pista 100.0 %

Comprobación CRC 8A4C3ED6

Copiar CRC 8A4C3ED6

Extraida con precisión (confidencia 38) [BFCC3DC6] (AR v2)

Copia OK

Pista 9

Nombre de Archivo 09. Make It Like a Memory.wav

Nivel Pico 96.5 %

Velocidad de extracción 12.5 X

Calidad de Pista 100.0 %

Comprobación CRC EBD42792

Copiar CRC EBD42792

Extraida con precisión (confidencia 39) [9811A334] (AR v2)

Copia OK

Todas las pistas extraidas con precisión

Sin Errores

Final del Informe

---- CUETools DB Plugin V2.1.6

[CTDB TOCID: tVn2bQsNWBI6NyblPyzJSNpElFU-] found

Submit result: tVn2bQsNWBI6NyblPyzJSNpElFU- has been confirmed

Track | CTDB Status

1 | (123/125) Accurately ripped

2 | (123/125) Accurately ripped

3 | (123/125) Accurately ripped

4 | (125/125) Accurately ripped

5 | (124/125) Accurately ripped

6 | (124/125) Accurately ripped

7 | (124/125) Accurately ripped

8 | (125/125) Accurately ripped

9 | (123/125) Accurately ripped

avatar gilypo
Vom 19/11/2014
Spanien (Cantabria)
Verkäufer als Privatperson registriert.