Akzeptiert Angebote

BERLIN - CUANDO EL CIELO DEJE DE EXISTIR - 1991 - CD - DISCO VERIFICADO

Versand ab 5,50€
Zahlung tc Akzeptiert Zahlung tc

Anzahl der Artikel: 1

Zustand des Artikels: Normal (mit normalen Gebrauchsspuren)

El disco tiene marcas pero se ha verificado con precisión con el programa informático Exact Audio Copy (ver informe al final)

+++

Bajo ningún concepto se envía ordinario, todos los envíos son certificados

Gastos de envío gratis para pedidos superiores a 30 euros con destino a España peninsular

Vea coste de envío en el apartado "Formas de pago y envío"

Fotos reales del artículo

+++

Exact Audio Copy V1.6 from 23. October 2020

Archivo Log de extracciones desde 26. Enero 2023, 0:33

Artista desconocido / Título desconocido

Usar unidad : HL-DT-STDVDRAM GSA-T50L Adapter: 1 ID: 0

Modo de Lectura : : Explosivo

Corrección de Desplazamiento de Lectura : : 667

Sobreleer tanto en Lead-In como en Lead-Out : No

Rellenar las muestras faltantes con silencios : Sí

Eliminar silencios inicial y final : No

Muestras nulas usadas en los calculos de CRC : Sí

Interfaz usada : Interfaz propio de Win32 para Windowns NT y 2000

Manejo de huecos : No se detectó, por lo que anexa a la pista anterior

Formato de Salida utilizado : : Rutinas WAV Internas

Formato de muestra : 44.100 Hz; 16 Bit; Estéreo

TOC extraídos del CD

Pista | Inicio | Longitud | Inicio del sector | Fin del sector

------------------------------------------------------------------

1 | 0:00.32 | 3:27.68 | 32 | 15624

2 | 3:28.25 | 4:24.12 | 15625 | 35436

3 | 7:52.37 | 4:43.50 | 35437 | 56711

4 | 12:36.12 | 4:24.13 | 56712 | 76524

5 | 17:00.25 | 3:59.25 | 76525 | 94474

6 | 20:59.50 | 3:40.12 | 94475 | 110986

7 | 24:39.62 | 5:09.50 | 110987 | 134211

8 | 29:49.37 | 3:38.00 | 134212 | 150561

9 | 33:27.37 | 4:07.63 | 150562 | 169149

10 | 37:35.25 | 4:28.07 | 169150 | 189256

Pista 1

Nombre de Archivo 01. Pista01.wav

Nivel Pico 95.6 %

Velocidad de extracción 7.3 X

Comprobación CRC B5384B8E

Copiar CRC B5384B8E

Extraida con precisión (confidencia 3) [BD037544] (AR v2)

Copia OK

Pista 2

Nombre de Archivo 02. Pista02.wav

Nivel Pico 100.0 %

Velocidad de extracción 8.2 X

Comprobación CRC 91C29F48

Copiar CRC 91C29F48

Extraida con precisión (confidencia 4) [CEA860F8] (AR v2)

Copia OK

Pista 3

Nombre de Archivo 03. Pista03.wav

Nivel Pico 93.1 %

Velocidad de extracción 9.1 X

Comprobación CRC 71F7B0C1

Copiar CRC 71F7B0C1

Extraida con precisión (confidencia 3) [6243A93A] (AR v2)

Copia OK

Pista 4

Nombre de Archivo 04. Pista04.wav

Nivel Pico 93.1 %

Velocidad de extracción 9.9 X

Comprobación CRC B766B966

Copiar CRC B766B966

Extraida con precisión (confidencia 3) [E6EAB0C5] (AR v2)

Copia OK

Pista 5

Nombre de Archivo 05. Pista05.wav

Nivel Pico 93.1 %

Velocidad de extracción 10.6 X

Comprobación CRC 9FD80485

Copiar CRC 9FD80485

Extraida con precisión (confidencia 3) [8F5DDD9D] (AR v2)

Copia OK

Pista 6

Nombre de Archivo 06. Pista06.wav

Nivel Pico 99.2 %

Velocidad de extracción 11.2 X

Comprobación CRC BED3FFC7

Copiar CRC BED3FFC7

Extraida con precisión (confidencia 4) [074ABFD1] (AR v2)

Copia OK

Pista 7

Nombre de Archivo 07. Pista07.wav

Nivel Pico 100.0 %

Velocidad de extracción 11.8 X

Comprobación CRC 668A2EBD

Copiar CRC 668A2EBD

Extraida con precisión (confidencia 3) [DA651AAE] (AR v2)

Copia OK

Pista 8

Nombre de Archivo 08. Pista08.wav

Nivel Pico 96.7 %

Velocidad de extracción 12.4 X

Comprobación CRC CEDE62FB

Copiar CRC CEDE62FB

Extraida con precisión (confidencia 4) [10D81EA3] (AR v2)

Copia OK

Pista 9

Nombre de Archivo 09. Pista09.wav

Nivel Pico 98.8 %

Velocidad de extracción 13.0 X

Comprobación CRC 642D9FB5

Copiar CRC 642D9FB5

Extraida con precisión (confidencia 3) [887822BF] (AR v2)

Copia OK

Pista 10

Nombre de Archivo 10. Pista10.wav

Nivel Pico 100.0 %

Velocidad de extracción 13.5 X

Comprobación CRC ACB6940B

Copiar CRC ACB6940B

Extraida con precisión (confidencia 3) [284E9573] (AR v2)

Copia OK

Todas las pistas extraidas con precisión

Sin Errores

Final del Informe

---- CUETools DB Plugin V2.1.6

[CTDB TOCID: IOOMOy3AiVtOi2EVEIb3aHxrSgc-] found

Submit result: IOOMOy3AiVtOi2EVEIb3aHxrSgc- has been confirmed

Track | CTDB Status

1 | (4/4) Accurately ripped

2 | (4/4) Accurately ripped

3 | (4/4) Accurately ripped

4 | (4/4) Accurately ripped

5 | (4/4) Accurately ripped

6 | (4/4) Accurately ripped

7 | (4/4) Accurately ripped

8 | (4/4) Accurately ripped

9 | (4/4) Accurately ripped

10 | (4/4) Accurately ripped

avatar gilypo
Vom 19/11/2014
Spanien (Cantabria)
Verkäufer als Privatperson registriert.