Akzeptiert Angebote

CHRISTINA AGUILERA - MI REFLEJO - CD - 2000 - DISCO VERIFICADO

Versand ab 5,50€
Zahlung tc Akzeptiert Zahlung tc

Anzahl der Artikel: 1

Zustand des Artikels: Normal (mit normalen Gebrauchsspuren)

El disco tiene marcas pero se ha verificado con precisión con el programa informático Exact Audio Copy (ver informe al final)

+++

Bajo ningún concepto se envía ordinario, todos los envíos son certificados

Gastos de envío gratis para pedidos superiores a 30 euros con destino a España peninsular

Vea coste de envío en el apartado "Formas de pago y envío"

Fotos reales del artículo

+++

Exact Audio Copy V1.6 from 23. October 2020

Archivo Log de extracciones desde 25. Septiembre 2021, 18:12

Christina Aguilera / Mi reflejo

Usar unidad : hp DVDRAM GU90N Adapter: 1 ID: 0

Modo de Lectura : : Seguro

Utilizar corriente precisa : Sí

Caché de audio por defecto : No

Utilizar los punteros C2 : No

Corrección de Desplazamiento de Lectura : : 102

Sobreleer tanto en Lead-In como en Lead-Out : No

Rellenar las muestras faltantes con silencios : Sí

Eliminar silencios inicial y final : No

Muestras nulas usadas en los calculos de CRC : Sí

Interfaz usada : Interfaz propio de Win32 para Windowns NT y 2000

Manejo de huecos : No se detectó, por lo que anexa a la pista anterior

Formato de Salida utilizado : : Rutinas WAV Internas

Formato de muestra : 44.100 Hz; 16 Bit; Estéreo

TOC extraídos del CD

Pista | Inicio | Longitud | Inicio del sector | Fin del sector

------------------------------------------------------------------

1 | 0:00.00 | 3:37.15 | 0 | 16289

2 | 3:37.15 | 2:57.62 | 16290 | 29626

3 | 6:35.02 | 4:41.62 | 29627 | 50763

4 | 11:16.64 | 4:26.61 | 50764 | 70774

5 | 15:43.50 | 3:11.15 | 70775 | 85114

6 | 18:54.65 | 4:50.57 | 85115 | 106921

7 | 23:45.47 | 3:44.65 | 106922 | 123786

8 | 27:30.37 | 4:10.18 | 123787 | 142554

9 | 31:40.55 | 4:05.54 | 142555 | 160983

10 | 35:46.34 | 3:15.00 | 160984 | 175608

11 | 39:01.34 | 3:33.21 | 175609 | 191604

12 | 45:06.55 | 17:08.00 | 203005 | 280104

Pista 1

Nombre de Archivo 01. Genio atrapado.wav

Nivel Pico 99.9 %

Velocidad de extracción 3.0 X

Calidad de Pista 100.0 %

Comprobación CRC 66D61716

Copiar CRC 66D61716

Extraida con precisión (confidencia 2) [9D814B88] (AR v2)

Copia OK

Pista 2

Nombre de Archivo 02. Falsas esperanzas.wav

Nivel Pico 99.9 %

Velocidad de extracción 4.7 X

Calidad de Pista 100.0 %

Comprobación CRC D3BBAC9E

Copiar CRC D3BBAC9E

Extraida con precisión (confidencia 2) [D3B161E0] (AR v2)

Copia OK

Pista 3

Nombre de Archivo 03. El beso del final.wav

Nivel Pico 98.8 %

Velocidad de extracción 4.3 X

Calidad de Pista 99.9 %

Comprobación CRC 8D442C13

Copiar CRC 8D442C13

Extraida con precisión (confidencia 2) [6C95CE97] (AR v2)

Copia OK

Pista 4

Nombre de Archivo 04. Pero me acuerdo de ti.wav

Nivel Pico 98.8 %

Velocidad de extracción 4.5 X

Calidad de Pista 100.0 %

Comprobación CRC 36824A17

Copiar CRC 36824A17

Extraida con precisión (confidencia 2) [27BDFF71] (AR v2)

Copia OK

Pista 5

Nombre de Archivo 05. Ven conmigo (solamente tú).wav

Nivel Pico 99.9 %

Velocidad de extracción 4.4 X

Calidad de Pista 99.9 %

Comprobación CRC 16256F62

Copiar CRC 16256F62

Extraida con precisión (confidencia 2) [EFB744A8] (AR v2)

Copia OK

Pista 6

Nombre de Archivo 06. Si no te hubiera conocido.wav

Nivel Pico 98.8 %

Velocidad de extracción 6.0 X

Calidad de Pista 100.0 %

Comprobación CRC D02FFA45

Copiar CRC D02FFA45

Extraida con precisión (confidencia 2) [951ED1FD] (AR v2)

Copia OK

Pista 7

Nombre de Archivo 07. Contigo en la distancia.wav

Nivel Pico 98.0 %

Velocidad de extracción 6.5 X

Calidad de Pista 100.0 %

Comprobación CRC 0B59C9F6

Copiar CRC 0B59C9F6

Extraida con precisión (confidencia 2) [350F9012] (AR v2)

Copia OK

Pista 8

Nombre de Archivo 08. Cuando no es contigo.wav

Nivel Pico 98.8 %

Velocidad de extracción 6.5 X

Calidad de Pista 100.0 %

Comprobación CRC AD5C9418

Copiar CRC AD5C9418

Extraida con precisión (confidencia 2) [9DCDFE5F] (AR v2)

Copia OK

Pista 9

Nombre de Archivo 09. Por siempre tú.wav

Nivel Pico 99.9 %

Velocidad de extracción 7.0 X

Calidad de Pista 100.0 %

Comprobación CRC 4608869A

Copiar CRC 4608869A

Extraida con precisión (confidencia 2) [067CC8E1] (AR v1)

Copia OK

Pista 10

Nombre de Archivo 10. Una mujer.wav

Nivel Pico 98.8 %

Velocidad de extracción 6.9 X

Calidad de Pista 100.0 %

Comprobación CRC 9F7A685B

Copiar CRC 9F7A685B

Extraida con precisión (confidencia 2) [EA48DB55] (AR v2)

Copia OK

Pista 11

Nombre de Archivo 11. Mi reflejo.wav

Nivel Pico 99.9 %

Velocidad de extracción 6.7 X

Calidad de Pista 100.0 %

Comprobación CRC CA4D830A

Copiar CRC CA4D830A

Extraida con precisión (confidencia 2) [D51F9BA8] (AR v1)

Copia OK

Todas las pistas extraidas con precisión

Sin Errores

Final del Informe

---- CUETools DB Plugin V2.1.6

[CTDB TOCID: VMyi0NlMuhD7WejxEXGrsl4mU2U-] found

Submit result: VMyi0NlMuhD7WejxEXGrsl4mU2U- has been confirmed

Track | CTDB Status

1 | (17/17) Accurately ripped

2 | (16/17) Accurately ripped

3 | (17/17) Accurately ripped

4 | (17/17) Accurately ripped

5 | (17/17) Accurately ripped

6 | (17/17) Accurately ripped

7 | (17/17) Accurately ripped

8 | (16/17) Accurately ripped

9 | (17/17) Accurately ripped

10 | (17/17) Accurately ripped

11 | (16/17) Accurately ripped

avatar gilypo
Vom 19/11/2014
Spanien (Cantabria)
Verkäufer als Privatperson registriert.