Wir verwenden eigene und fremde Cookies zur Analyse unserer Dienstleistungen. Wenn Sie weitersurfen, gehen wir davon aus, dass Sie deren Gebrauch akzeptieren. Mehr Information HIER

EL FARY - DEDÍCAME UNA HORA - CD - 1990 - DISCO VERIFICADO


7 fotos EL FARY - DEDÍCAME UNA HORA - CD - 1990 - DISCO VERIFICADO (Música - CD's Flamenco, Canción española y Cuplé)

  • Kostenloser Versand (Einschreiben)
  • Artikel: 1

    Zustand: Irgendeine Beschädigung

    Rayón en parte trasera del libreto (ver última foto)


    El cd tiene marcas pero se ha se ha verificado correctamente con el programa Exact Audio Copy (ver informe al final)

    Rayón en parte trasera del libreto (ver última foto)

    +++

    Envío certificado gratuito a toda España (incluido Canarias)

    +++

    Si adquiere más artículos de mi tienda se lo meto en el mismo paquete y no pagaría gastos de envío (excepto Canarias, consultar peso)

    Fotos reales del artículo

    +++

    Exact Audio Copy V1.6 from 23. October 2020

    Archivo Log de extracciones desde 17. Septiembre 2021, 1:46

    Artista desconocido / Título desconocido

    Usar unidad  : PIONEER BD-RW   BDR-209M   Adapter: 1  ID: 0

    Modo de Lectura   :        : Seguro
    Utilizar corriente precisa : Sí
    Caché de audio por defecto : No
    Utilizar los punteros C2   : No

    Corrección de Desplazamiento de Lectura :     : 667
    Sobreleer tanto en Lead-In como en Lead-Out   : No
    Rellenar las muestras faltantes con silencios : Sí
    Eliminar silencios inicial y final            : No
    Muestras nulas usadas en los calculos de CRC  : Sí
    Interfaz usada                                : Interfaz propio de Win32 para Windowns NT y 2000
    Manejo de huecos                              : No se detectó, por lo que anexa a la pista anterior

    Formato de Salida utilizado :  : Rutinas WAV Internas
    Formato de muestra             : 44.100 Hz; 16 Bit; Estéreo


    TOC extraídos del CD

         Pista |  Inicio  | Longitud | Inicio del sector | Fin del sector 
        ------------------------------------------------------------------
            1  |  0:00.33 |  3:41.55 |          33       |      16662     
            2  |  3:42.13 |  2:55.00 |       16663       |      29787     
            3  |  6:37.13 |  3:31.70 |       29788       |      45682     
            4  | 10:09.08 |  3:04.00 |       45683       |      59482     
            5  | 13:13.08 |  3:14.02 |       59483       |      74034     
            6  | 16:27.10 |  3:29.03 |       74035       |      89712     
            7  | 19:56.13 |  2:59.70 |       89713       |     103207     
            8  | 22:56.08 |  3:28.02 |      103208       |     118809     
            9  | 26:24.10 |  3:35.00 |      118810       |     134934     
           10  | 29:59.10 |  2:51.23 |      134935       |     147782     


    Pista  1

         Nombre de Archivo 01 Pista01.wav

         Nivel Pico 100.0 %
         Velocidad de extracción 2.9 X
         Calidad de Pista 99.9 %
         Comprobación CRC 3547A25C
         Copiar CRC 3547A25C
         Pista sin datos en Accuraterip
         Copia OK

    Pista  2

         Nombre de Archivo 02 Pista02.wav

         Nivel Pico 86.5 %
         Velocidad de extracción 3.5 X
         Calidad de Pista 100.0 %
         Comprobación CRC BCABA295
         Copiar CRC BCABA295
         Pista sin datos en Accuraterip
         Copia OK

    Pista  3

         Nombre de Archivo 03 Pista03.wav

         Nivel Pico 83.0 %
         Velocidad de extracción 3.6 X
         Calidad de Pista 100.0 %
         Comprobación CRC D00BA8DA
         Copiar CRC D00BA8DA
         Pista sin datos en Accuraterip
         Copia OK

    Pista  4

         Nombre de Archivo 04 Pista04.wav

         Nivel Pico 99.9 %
         Velocidad de extracción 3.5 X
         Calidad de Pista 100.0 %
         Comprobación CRC E8DC0E19
         Copiar CRC E8DC0E19
         Pista sin datos en Accuraterip
         Copia OK

    Pista  5

         Nombre de Archivo 05 Pista05.wav

         Nivel Pico 92.6 %
         Velocidad de extracción 3.7 X
         Calidad de Pista 100.0 %
         Comprobación CRC 01489118
         Copiar CRC 01489118
         Pista sin datos en Accuraterip
         Copia OK

    Pista  6

         Nombre de Archivo 06 Pista06.wav

         Nivel Pico 91.0 %
         Velocidad de extracción 3.8 X
         Calidad de Pista 100.0 %
         Comprobación CRC E202C127
         Copiar CRC E202C127
         Pista sin datos en Accuraterip
         Copia OK

    Pista  7

         Nombre de Archivo 07 Pista07.wav

         Nivel Pico 96.1 %
         Velocidad de extracción 10.5 X
         Calidad de Pista 99.9 %
         Comprobación CRC 8AF8B9C9
         Copiar CRC 8AF8B9C9
         Pista sin datos en Accuraterip
         Copia OK

    Pista  8

         Nombre de Archivo 08 Pista08.wav

         Nivel Pico 97.6 %
         Velocidad de extracción 10.6 X
         Calidad de Pista 100.0 %
         Comprobación CRC C8FEC771
         Copiar CRC C8FEC771
         Pista sin datos en Accuraterip
         Copia OK

    Pista  9

         Nombre de Archivo 09 Pista09.wav

         Nivel Pico 97.3 %
         Velocidad de extracción 11.1 X
         Calidad de Pista 100.0 %
         Comprobación CRC 5EEA483F
         Copiar CRC 5EEA483F
         Pista sin datos en Accuraterip
         Copia OK

    Pista 10

         Nombre de Archivo 10 Pista10.wav

         Nivel Pico 99.9 %
         Velocidad de extracción 11.2 X
         Calidad de Pista 99.9 %
         Comprobación CRC 472610BF
         Copiar CRC 472610BF
         Pista sin datos en Accuraterip
         Copia OK


    Ninguna pista tiene datos en AccurateRip

    Sin Errores

    Final del Informe

    ---- CUETools DB Plugin V2.1.6

    [CTDB TOCID: URVZYbYT6d4g.CLsQH_hAe6ZYNo-] found
    Submit result: URVZYbYT6d4g.CLsQH_hAe6ZYNo- has been confirmed
    Track | CTDB Status
      1   | (1/1) Accurately ripped
      2   | (1/1) Accurately ripped
      3   | (1/1) Accurately ripped
      4   | (1/1) Accurately ripped
      5   | (1/1) Accurately ripped
      6   | (1/1) Accurately ripped
      7   | (1/1) Accurately ripped
      8   | (1/1) Accurately ripped
      9   | (1/1) Accurately ripped
     10   | (1/1) Accurately ripped

  • Zahlung tc Der Verkäufer akzeptiert Zahlung tc.
    Sichere Zahlungsmethode, ein integriertes Kartenzahlungs-Gateway, schnell und effizient.

gilypo

(1.871)
Spanien (Cantabria)
Mitglied seit: 19/11/2014

  Zu Favoriten hinzufügen

Über diesen Artikel informieren