Wir verwenden eigene und fremde Cookies zur Analyse unserer Dienstleistungen. Wenn Sie weitersurfen, gehen wir davon aus, dass Sie deren Gebrauch akzeptieren. Mehr Information HIER

EL FARY - SIN TRAMPA NI CARTÓN - CD - 2000 - DISCO VERIFICADO


8 fotos EL FARY - SIN TRAMPA NI CARTÓN - CD - 2000 - DISCO VERIFICADO (Música - CD's Flamenco, Canción española y Cuplé)

  • Artikel: 1

    Zustand: Irgendeine Beschädigung

    Dobleces en libreto (ver fotos)


    El cd tiene marcas pero se ha se ha verificado correctamente con el programa Exact Audio Copy (ver informe al final)

    Dobleces en libreto (ver fotos)

    +++

    Bajo ningún concepto se envía ordinario, siempre certificado

    Gastos de envío gratis para pedidos superiores a 30 euros con destino a España

    (excepto Canarias, consulte coste sin compromiso)

    Vea coste de envío en el apartado "Formas de pago y envío"

    Fotos reales del artículo

    +++

    Exact Audio Copy V1.6 from 23. October 2020

    Archivo Log de extracciones desde 19. Septiembre 2021, 22:48

    Artista desconocido / Título desconocido

    Usar unidad  : PIONEER BD-RW   BDR-209M   Adapter: 1  ID: 0

    Modo de Lectura   :        : Seguro
    Utilizar corriente precisa : Sí
    Caché de audio por defecto : No
    Utilizar los punteros C2   : No

    Corrección de Desplazamiento de Lectura :     : 667
    Sobreleer tanto en Lead-In como en Lead-Out   : No
    Rellenar las muestras faltantes con silencios : Sí
    Eliminar silencios inicial y final            : No
    Muestras nulas usadas en los calculos de CRC  : Sí
    Interfaz usada                                : Interfaz propio de Win32 para Windowns NT y 2000
    Manejo de huecos                              : No se detectó, por lo que anexa a la pista anterior

    Formato de Salida utilizado :  : Rutinas WAV Internas
    Formato de muestra             : 44.100 Hz; 16 Bit; Estéreo


    TOC extraídos del CD

         Pista |  Inicio  | Longitud | Inicio del sector | Fin del sector 
        ------------------------------------------------------------------
            1  |  0:00.00 |  3:45.10 |           0       |      16884     
            2  |  3:45.10 |  3:52.60 |       16885       |      34344     
            3  |  7:37.70 |  3:50.47 |       34345       |      51641     
            4  | 11:28.42 |  3:26.60 |       51642       |      67151     
            5  | 14:55.27 |  3:48.03 |       67152       |      84254     
            6  | 18:43.30 |  3:40.12 |       84255       |     100766     
            7  | 22:23.42 |  3:24.00 |      100767       |     116066     
            8  | 25:47.42 |  4:00.25 |      116067       |     134091     
            9  | 29:47.67 |  3:47.73 |      134092       |     151189     
           10  | 33:35.65 |  3:44.65 |      151190       |     168054     
           11  | 37:20.55 |  3:15.65 |      168055       |     182744     
           12  | 40:36.45 |  4:15.07 |      182745       |     201876     


    Pista  1

         Nombre de Archivo 01 Pista01.wav

         Nivel Pico 100.0 %
         Velocidad de extracción 8.0 X
         Calidad de Pista 100.0 %
         Comprobación CRC 811D8AB1
         Copiar CRC 811D8AB1
         Pista sin datos en Accuraterip
         Copia OK

    Pista  2

         Nombre de Archivo 02 Pista02.wav

         Nivel Pico 100.0 %
         Velocidad de extracción 8.8 X
         Calidad de Pista 100.0 %
         Comprobación CRC F2A91CBF
         Copiar CRC F2A91CBF
         Pista sin datos en Accuraterip
         Copia OK

    Pista  3

         Nombre de Archivo 03 Pista03.wav

         Nivel Pico 99.9 %
         Velocidad de extracción 9.5 X
         Calidad de Pista 100.0 %
         Comprobación CRC 17F4394C
         Copiar CRC 17F4394C
         Pista sin datos en Accuraterip
         Copia OK

    Pista  4

         Nombre de Archivo 04 Pista04.wav

         Nivel Pico 99.9 %
         Velocidad de extracción 9.9 X
         Calidad de Pista 99.9 %
         Comprobación CRC 880AEA5C
         Copiar CRC 880AEA5C
         Pista sin datos en Accuraterip
         Copia OK

    Pista  5

         Nombre de Archivo 05 Pista05.wav

         Nivel Pico 100.0 %
         Velocidad de extracción 10.2 X
         Calidad de Pista 99.9 %
         Comprobación CRC 9C76452E
         Copiar CRC 9C76452E
         Pista sin datos en Accuraterip
         Copia OK

    Pista  6

         Nombre de Archivo 06 Pista06.wav

         Nivel Pico 99.9 %
         Velocidad de extracción 10.6 X
         Calidad de Pista 100.0 %
         Comprobación CRC 884F8027
         Copiar CRC 884F8027
         Pista sin datos en Accuraterip
         Copia OK

    Pista  7

         Nombre de Archivo 07 Pista07.wav

         Nivel Pico 100.0 %
         Velocidad de extracción 10.9 X
         Calidad de Pista 100.0 %
         Comprobación CRC F4FD25CD
         Copiar CRC F4FD25CD
         Pista sin datos en Accuraterip
         Copia OK

    Pista  8

         Nombre de Archivo 08 Pista08.wav

         Nivel Pico 99.9 %
         Velocidad de extracción 11.3 X
         Calidad de Pista 99.9 %
         Comprobación CRC A6F87783
         Copiar CRC A6F87783
         Pista sin datos en Accuraterip
         Copia OK

    Pista  9

         Nombre de Archivo 09 Pista09.wav

         Nivel Pico 99.9 %
         Velocidad de extracción 11.7 X
         Calidad de Pista 100.0 %
         Comprobación CRC 7981C162
         Copiar CRC 7981C162
         Pista sin datos en Accuraterip
         Copia OK

    Pista 10

         Nombre de Archivo 10 Pista10.wav

         Nivel Pico 100.0 %
         Velocidad de extracción 12.1 X
         Calidad de Pista 100.0 %
         Comprobación CRC 313BCAE7
         Copiar CRC 313BCAE7
         Pista sin datos en Accuraterip
         Copia OK

    Pista 11

         Nombre de Archivo 11 Pista11.wav

         Nivel Pico 99.9 %
         Velocidad de extracción 12.2 X
         Calidad de Pista 99.9 %
         Comprobación CRC 42836BF2
         Copiar CRC 42836BF2
         Pista sin datos en Accuraterip
         Copia OK

    Pista 12

         Nombre de Archivo 12 Pista12.wav

         Nivel Pico 99.9 %
         Velocidad de extracción 12.7 X
         Calidad de Pista 100.0 %
         Comprobación CRC 22278F56
         Copiar CRC 22278F56
         Pista sin datos en Accuraterip
         Copia OK


    Ninguna pista tiene datos en AccurateRip

    Sin Errores

    Final del Informe

    ---- CUETools DB Plugin V2.1.6

    [CTDB TOCID: CJLmK7ys6w848sP5C.WjiQ94iDg-] disk not present in database
    Submit result: CJLmK7ys6w848sP5C.WjiQ94iDg- has been uploaded

  • Zahlung tc Der Verkäufer akzeptiert Zahlung tc.
    Sichere Zahlungsmethode, ein integriertes Kartenzahlungs-Gateway, schnell und effizient.

gilypo

(1.871)
Spanien (Cantabria)
Mitglied seit: 19/11/2014

  Zu Favoriten hinzufügen

Über diesen Artikel informieren