Akzeptiert Angebote

EROS RAMAZZOTTI - ESTILO LIBRE - 2000 - CD - DISCO VERIFICADO - ESTILOLIBRE RAMMAZOTTI RAMAZZOTI

Versand ab 5,50€
Zahlung tc Akzeptiert Zahlung tc

Anzahl der Artikel: 1

Zustand des Artikels: Normal (mit normalen Gebrauchsspuren)

El disco tiene marcas importantes pero se ha verificado con precisión con el programa informático Exact Audio Copy (ver informe al final)

+++

Bajo ningún concepto se envía ordinario, todos los envíos son certificados

Gastos de envío gratis para pedidos superiores a 30 euros con destino a España peninsular

Vea coste de envío en el apartado "Formas de pago y envío"

Fotos reales del artículo

+++

Exact Audio Copy V1.6 from 23. October 2020

Archivo Log de extracciones desde 10. Septiembre 2021, 20:52

Eros Ramazzotti / Estilolibre

Usar unidad : hp DVDRAM GU90N Adapter: 1 ID: 0

Modo de Lectura : : Seguro

Utilizar corriente precisa : Sí

Caché de audio por defecto : No

Utilizar los punteros C2 : No

Corrección de Desplazamiento de Lectura : : 102

Sobreleer tanto en Lead-In como en Lead-Out : No

Rellenar las muestras faltantes con silencios : Sí

Eliminar silencios inicial y final : No

Muestras nulas usadas en los calculos de CRC : Sí

Interfaz usada : Interfaz propio de Win32 para Windowns NT y 2000

Manejo de huecos : No se detectó, por lo que anexa a la pista anterior

Formato de Salida utilizado : : Rutinas WAV Internas

Formato de muestra : 44.100 Hz; 16 Bit; Estéreo

TOC extraídos del CD

Pista | Inicio | Longitud | Inicio del sector | Fin del sector

------------------------------------------------------------------

1 | 0:00.00 | 4:42.02 | 0 | 21151

2 | 4:42.02 | 4:02.35 | 21152 | 39336

3 | 8:44.37 | 4:12.73 | 39337 | 58309

4 | 12:57.35 | 4:38.52 | 58310 | 79211

5 | 17:36.12 | 4:29.31 | 79212 | 99417

6 | 22:05.43 | 4:13.67 | 99418 | 118459

7 | 26:19.35 | 4:16.63 | 118460 | 137722

8 | 30:36.23 | 4:22.34 | 137723 | 157406

9 | 34:58.57 | 4:42.28 | 157407 | 178584

10 | 39:41.10 | 4:16.44 | 178585 | 197828

11 | 43:57.54 | 4:07.45 | 197829 | 216398

12 | 48:05.24 | 3:55.06 | 216399 | 234029

13 | 54:32.30 | 15:18.13 | 245430 | 314292

Pista 1

Nombre de Archivo 01. La sombra del gigante.wav

Nivel Pico 100.0 %

Velocidad de extracción 4.8 X

Calidad de Pista 100.0 %

Comprobación CRC C0C59407

Copiar CRC C0C59407

Extraida con precisión (confidencia 9) [FE49BF49] (AR v2)

Copia OK

Pista 2

Nombre de Archivo 02. Fuego en el fuego.wav

Nivel Pico 99.3 %

Velocidad de extracción 5.4 X

Calidad de Pista 100.0 %

Comprobación CRC 1D052B1F

Copiar CRC 1D052B1F

Extraida con precisión (confidencia 9) [F6393118] (AR v2)

Copia OK

Pista 3

Nombre de Archivo 03. El alma de los árboles.wav

Nivel Pico 99.2 %

Velocidad de extracción 4.4 X

Calidad de Pista 99.9 %

Comprobación CRC 9AF9FCA6

Copiar CRC 9AF9FCA6

Extraida con precisión (confidencia 9) [D30F7848] (AR v2)

Copia OK

Pista 4

Nombre de Archivo 04. Ángel no es.wav

Nivel Pico 100.0 %

Velocidad de extracción 5.7 X

Calidad de Pista 100.0 %

Comprobación CRC 361E4611

Copiar CRC 361E4611

Extraida con precisión (confidencia 9) [7B430028] (AR v2)

Copia OK

Pista 5

Nombre de Archivo 05. El águila y el condor.wav

Nivel Pico 100.0 %

Velocidad de extracción 6.1 X

Calidad de Pista 100.0 %

Comprobación CRC FF34369F

Copiar CRC FF34369F

Extraida con precisión (confidencia 9) [193FC6AF] (AR v2)

Copia OK

Pista 6

Nombre de Archivo 06. Più che puoi.wav

Nivel Pico 100.0 %

Velocidad de extracción 6.3 X

Calidad de Pista 100.0 %

Comprobación CRC E5B8A2B3

Copiar CRC E5B8A2B3

Extraida con precisión (confidencia 9) [7EE6F963] (AR v2)

Copia OK

Pista 7

Nombre de Archivo 07. Mi amor por ti.wav

Nivel Pico 99.0 %

Velocidad de extracción 6.6 X

Calidad de Pista 100.0 %

Comprobación CRC 5073F71C

Copiar CRC 5073F71C

Extraida con precisión (confidencia 9) [5366A205] (AR v2)

Copia OK

Pista 8

Nombre de Archivo 08. Quiero saberlo.wav

Nivel Pico 100.0 %

Velocidad de extracción 6.9 X

Calidad de Pista 100.0 %

Comprobación CRC A33BB72A

Copiar CRC A33BB72A

Extraida con precisión (confidencia 9) [D968D344] (AR v2)

Copia OK

Pista 9

Nombre de Archivo 09. Y en el este una luz.wav

Nivel Pico 99.9 %

Velocidad de extracción 7.1 X

Calidad de Pista 100.0 %

Comprobación CRC 854E2847

Copiar CRC 854E2847

Extraida con precisión (confidencia 9) [F15AFAF7] (AR v2)

Copia OK

Pista 10

Nombre de Archivo 10. Azul sin par.wav

Nivel Pico 98.9 %

Velocidad de extracción 6.6 X

Calidad de Pista 100.0 %

Comprobación CRC 24CE60CC

Copiar CRC 24CE60CC

Extraida con precisión (confidencia 9) [13703509] (AR v2)

Copia OK

Pista 11

Nombre de Archivo 11. Mujer amiga mía.wav

Nivel Pico 100.0 %

Velocidad de extracción 2.3 X

Calidad de Pista 100.0 %

Comprobación CRC 1005F8E3

Copiar CRC 1005F8E3

Extraida con precisión (confidencia 9) [398A42CB] (AR v2)

Copia OK

Pista 12

Nombre de Archivo 12. Para mí será por siempre.wav

Nivel Pico 99.0 %

Velocidad de extracción 3.3 X

Calidad de Pista 99.9 %

Comprobación CRC 53FB8848

Copiar CRC 53FB8848

Extraida con precisión (confidencia 9) [ABE38C4A] (AR v2)

Copia OK

Todas las pistas extraidas con precisión

Sin Errores

Final del Informe

---- CUETools DB Plugin V2.1.6

[CTDB TOCID: 5qK6UhmVOULWtU6RRyuts3OrtTY-] found

Submit result: 5qK6UhmVOULWtU6RRyuts3OrtTY- has been confirmed

Track | CTDB Status

1 | (26/50) Accurately ripped

2 | (27/50) Accurately ripped

3 | (28/50) Accurately ripped

4 | (28/50) Accurately ripped

5 | (28/50) Accurately ripped

6 | (28/50) Accurately ripped

7 | (27/50) Accurately ripped

8 | (28/50) Accurately ripped

9 | (26/50) Accurately ripped

10 | (27/50) Accurately ripped

11 | (28/50) Accurately ripped

12 | (27/50) Accurately ripped

avatar gilypo
Vom 19/11/2014
Spanien (Cantabria)
Verkäufer als Privatperson registriert.