Akzeptiert Angebote

LOS SENCILLOS - DE PLACER !- CD - 2009 - DISCO VERIFICADO - DE PLACER!

Versand ab 5,50€
Zahlung tc Akzeptiert Zahlung tc

Anzahl der Artikel: 1

Zustand des Artikels: Normal (mit normalen Gebrauchsspuren)

El disco tiene marcas pero se ha verificado con precisión con el programa informático Exact Audio Copy (ver informe al final); detecta una posible incoherencia en la séptima canción, per la he escuchado en una cadena de música sin problemas

+++

Bajo ningún concepto se envía ordinario, todos los envíos son certificados

Gastos de envío gratis para pedidos superiores a 30 euros con destino a España peninsular

Vea coste de envío en el apartado "Formas de pago y envío"

Fotos reales del artículo

+++

Exact Audio Copy V1.6 from 23. October 2020

Archivo Log de extracciones desde 26. Enero 2023, 0:58

Los Sencillos / De placer!

Usar unidad : HL-DT-STDVDRAM GSA-T50L Adapter: 1 ID: 0

Modo de Lectura : : Explosivo

Corrección de Desplazamiento de Lectura : : 667

Sobreleer tanto en Lead-In como en Lead-Out : No

Rellenar las muestras faltantes con silencios : Sí

Eliminar silencios inicial y final : No

Muestras nulas usadas en los calculos de CRC : Sí

Interfaz usada : Interfaz propio de Win32 para Windowns NT y 2000

Manejo de huecos : No se detectó, por lo que anexa a la pista anterior

Formato de Salida utilizado : : Rutinas WAV Internas

Formato de muestra : 44.100 Hz; 16 Bit; Estéreo

TOC extraídos del CD

Pista | Inicio | Longitud | Inicio del sector | Fin del sector

------------------------------------------------------------------

1 | 0:00.32 | 3:57.08 | 32 | 17814

2 | 3:57.40 | 3:45.70 | 17815 | 34759

3 | 7:43.35 | 3:26.57 | 34760 | 50266

4 | 11:10.17 | 2:30.10 | 50267 | 61526

5 | 13:40.27 | 2:56.35 | 61527 | 74761

6 | 16:36.62 | 3:17.30 | 74762 | 89566

7 | 19:54.17 | 3:45.43 | 89567 | 106484

8 | 23:39.60 | 2:01.65 | 106485 | 115624

9 | 25:41.50 | 3:50.55 | 115625 | 132929

10 | 29:32.30 | 3:10.55 | 132930 | 147234

11 | 32:43.10 | 0:48.02 | 147235 | 150836

Pista 1

Nombre de Archivo 01. No, por eso no (Quiero que tu te vayas de aquí).wav

Nivel Pico 100.0 %

Velocidad de extracción 8.3 X

Comprobación CRC 5BCDD5D5

Copiar CRC 5BCDD5D5

Pista sin datos en Accuraterip

Copia OK

Pista 2

Nombre de Archivo 02. Mala mujer.wav

Nivel Pico 100.0 %

Velocidad de extracción 10.2 X

Comprobación CRC 8069DBC7

Copiar CRC 8069DBC7

Pista sin datos en Accuraterip

Copia OK

Pista 3

Nombre de Archivo 03. Racing (Favoritas Club).wav

Nivel Pico 100.0 %

Velocidad de extracción 10.8 X

Comprobación CRC 9DEBBE00

Copiar CRC 9DEBBE00

Pista sin datos en Accuraterip

Copia OK

Pista 4

Nombre de Archivo 04. El bar de Lis.wav

Nivel Pico 100.0 %

Velocidad de extracción 11.2 X

Comprobación CRC E03C0791

Copiar CRC E03C0791

Pista sin datos en Accuraterip

Copia OK

Pista 5

Nombre de Archivo 05. Estuve de vinos por ti.wav

Problema de Sincronización 0:02:29

Nivel Pico 100.0 %

Velocidad de extracción 12.0 X

Comprobación CRC 4AD3A89C

Copiar CRC 4AD3A89C

Pista sin datos en Accuraterip

Copia terminada

Pista 6

Nombre de Archivo 06. Por la noche.wav

Nivel Pico 100.0 %

Velocidad de extracción 12.2 X

Comprobación CRC 72862654

Copiar CRC 72862654

Pista sin datos en Accuraterip

Copia OK

Pista 7

Nombre de Archivo 07. Un minuto más.wav

Nivel Pico 100.0 %

Velocidad de extracción 13.7 X

Comprobación CRC FDFD79EF

Copiar CRC B9715418

Pista sin datos en Accuraterip

Copia OK

Pista 8

Nombre de Archivo 08. Flamenco.wav

Nivel Pico 100.0 %

Velocidad de extracción 14.1 X

Comprobación CRC 3C9E569D

Copiar CRC 3C9E569D

Pista sin datos en Accuraterip

Copia OK

Pista 9

Nombre de Archivo 09. Lluvias.wav

Nivel Pico 100.0 %

Velocidad de extracción 13.4 X

Comprobación CRC 2BF5BB8E

Copiar CRC 2BF5BB8E

Pista sin datos en Accuraterip

Copia OK

Pista 10

Nombre de Archivo 10. Señorita.wav

Nivel Pico 100.0 %

Velocidad de extracción 10.1 X

Comprobación CRC 4E52FD26

Copiar CRC 4E52FD26

Pista sin datos en Accuraterip

Copia OK

Pista 11

Nombre de Archivo 11. De placer!.wav

Nivel Pico 100.0 %

Velocidad de extracción 8.1 X

Comprobación CRC 60D9A2CC

Copiar CRC 60D9A2CC

Pista sin datos en Accuraterip

Copia OK

Ninguna pista tiene datos en AccurateRip

Sin Errores

Final del Informe

---- CUETools DB Plugin V2.1.6

[CTDB TOCID: dgDYrlAIavTitLwOe_gdwVkjV0Q-] found

Submit result: insufficient quality

Track | CTDB Status

1 | (4/4) Accurately ripped

2 | (4/4) Accurately ripped

3 | (4/4) Accurately ripped

4 | (4/4) Accurately ripped

5 | (4/4) Accurately ripped

6 | (4/4) Accurately ripped

7 | (3/4) Differs in 20 samples @01:10:00,01:10:26-01:10:27,02:00:39,02:00:65-02:00:66, or (1/4) differs in 20 samples @01:10:00,01:10:26-01:10:27,02:00:39,02:00:65-02:00:66

8 | (4/4) Accurately ripped

9 | (4/4) Accurately ripped

10 | (4/4) Accurately ripped

11 | (4/4) Accurately ripped

If you are sure that your rip contains errors, you can use CUETools to repair it.

avatar gilypo
Vom 19/11/2014
Spanien (Cantabria)
Verkäufer als Privatperson registriert.