Akzeptiert Angebote

MERCHE - #QUIEROCONTARTE - 2014 - CD - DISCO VERIFICADO - QUIERO CONTARTE QUIEROCONTARTE

Versand ab 5,50€
Zahlung tc Akzeptiert Zahlung tc

Anzahl der Artikel: 1

Zustand des Artikels: Normal (mit normalen Gebrauchsspuren)

El disco tiene marcas importantes pero se ha verificado con precisión con el programa informático Exact Audio Copy (ver informe al final)

+++

Bajo ningún concepto se envía ordinario, todos los envíos son certificados

Gastos de envío gratis para pedidos superiores a 30 euros con destino a España peninsular

Vea coste de envío en el apartado "Formas de pago y envío"

Fotos reales del artículo

+++

Exact Audio Copy V1.5 from 20. February 2020

Archivo Log de extracciones desde 11. Agosto 2021, 17:25

Artista desconocido / Título desconocido

Usar unidad : hp DVDRAM GU90N Adapter: 1 ID: 0

Modo de Lectura : : Seguro

Utilizar corriente precisa : Sí

Caché de audio por defecto : No

Utilizar los punteros C2 : No

Corrección de Desplazamiento de Lectura : : 102

Sobreleer tanto en Lead-In como en Lead-Out : No

Rellenar las muestras faltantes con silencios : Sí

Eliminar silencios inicial y final : No

Muestras nulas usadas en los calculos de CRC : Sí

Interfaz usada : Interfaz propio de Win32 para Windowns NT y 2000

Manejo de huecos : No se detectó, por lo que anexa a la pista anterior

Formato de Salida utilizado : : Rutinas WAV Internas

Formato de muestra : 44.100 Hz; 16 Bit; Estéreo

TOC extraídos del CD

Pista | Inicio | Longitud | Inicio del sector | Fin del sector

------------------------------------------------------------------

1 | 0:00.00 | 3:54.13 | 0 | 17562

2 | 3:54.13 | 3:19.41 | 17563 | 32528

3 | 7:13.54 | 4:01.56 | 32529 | 50659

4 | 11:15.35 | 4:23.66 | 50660 | 70450

5 | 15:39.26 | 3:42.13 | 70451 | 87113

6 | 19:21.39 | 3:39.57 | 87114 | 103595

7 | 23:01.21 | 3:51.39 | 103596 | 120959

8 | 26:52.60 | 3:11.69 | 120960 | 135353

9 | 30:04.54 | 4:08.08 | 135354 | 153961

10 | 34:12.62 | 3:51.32 | 153962 | 171318

11 | 38:04.19 | 4:29.71 | 171319 | 191564

12 | 42:34.15 | 3:43.54 | 191565 | 208343

Pista 1

Nombre de Archivo 01 Pista01.wav

Nivel Pico 98.2 %

Velocidad de extracción 2.6 X

Calidad de Pista 100.0 %

Comprobación CRC C4662072

Copiar CRC C4662072

Extraida con precisión (confidencia 2) [DB18310C] (AR v2)

Copia OK

Pista 2

Nombre de Archivo 02 Pista02.wav

Nivel Pico 99.4 %

Velocidad de extracción 2.2 X

Calidad de Pista 99.9 %

Comprobación CRC BAAAA6A5

Copiar CRC BAAAA6A5

Extraida con precisión (confidencia 2) [88B15308] (AR v2)

Copia OK

Pista 3

Nombre de Archivo 03 Pista03.wav

Nivel Pico 99.4 %

Velocidad de extracción 3.3 X

Calidad de Pista 100.0 %

Comprobación CRC 6459CA9B

Copiar CRC 6459CA9B

Extraida con precisión (confidencia 2) [DB19A210] (AR v2)

Copia OK

Pista 4

Nombre de Archivo 04 Pista04.wav

Nivel Pico 99.4 %

Velocidad de extracción 4.3 X

Calidad de Pista 100.0 %

Comprobación CRC 4E41C31B

Copiar CRC 4E41C31B

Extraida con precisión (confidencia 2) [B2D9C6A6] (AR v2)

Copia OK

Pista 5

Nombre de Archivo 05 Pista05.wav

Nivel Pico 99.4 %

Velocidad de extracción 2.8 X

Calidad de Pista 100.0 %

Comprobación CRC 6A6A049C

Copiar CRC 6A6A049C

Extraida con precisión (confidencia 2) [DB0969DF] (AR v2)

Copia OK

Pista 6

Nombre de Archivo 06 Pista06.wav

Nivel Pico 98.9 %

Velocidad de extracción 3.2 X

Calidad de Pista 99.9 %

Comprobación CRC 8E8755B5

Copiar CRC 8E8755B5

Extraida con precisión (confidencia 2) [BD6B2992] (AR v2)

Copia OK

Pista 7

Nombre de Archivo 07 Pista07.wav

Nivel Pico 94.7 %

Velocidad de extracción 2.2 X

Calidad de Pista 100.0 %

Comprobación CRC 69634A53

Copiar CRC 69634A53

Extraida con precisión (confidencia 2) [44D0D58E] (AR v2)

Copia OK

Pista 8

Nombre de Archivo 08 Pista08.wav

Nivel Pico 99.7 %

Velocidad de extracción 2.2 X

Calidad de Pista 99.9 %

Comprobación CRC 95F7B532

Copiar CRC 95F7B532

Extraida con precisión (confidencia 2) [47AD8312] (AR v2)

Copia OK

Pista 9

Nombre de Archivo 09 Pista09.wav

Nivel Pico 98.9 %

Velocidad de extracción 2.5 X

Calidad de Pista 100.0 %

Comprobación CRC 28F8F1CB

Copiar CRC 28F8F1CB

Extraida con precisión (confidencia 2) [C40DE2EF] (AR v2)

Copia OK

Pista 10

Nombre de Archivo 10 Pista10.wav

Nivel Pico 99.3 %

Velocidad de extracción 3.0 X

Calidad de Pista 99.9 %

Comprobación CRC A308F531

Copiar CRC A308F531

Extraida con precisión (confidencia 2) [4EA6BBAB] (AR v2)

Copia OK

Pista 11

Nombre de Archivo 11 Pista11.wav

Nivel Pico 98.9 %

Velocidad de extracción 3.1 X

Calidad de Pista 100.0 %

Comprobación CRC 93732F70

Copiar CRC 93732F70

Extraida con precisión (confidencia 2) [CA1164B0] (AR v2)

Copia OK

Pista 12

Nombre de Archivo 12 Pista12.wav

Nivel Pico 98.2 %

Velocidad de extracción 4.6 X

Calidad de Pista 100.0 %

Comprobación CRC CB208B6D

Copiar CRC CB208B6D

Extraida con precisión (confidencia 2) [D2717D5B] (AR v2)

Copia OK

Todas las pistas extraidas con precisión

Sin Errores

Final del Informe

---- CUETools DB Plugin V2.1.6

[CTDB TOCID: G3UdI8VsbBe2k3E.nR8QeBEivJg-] found

Submit result: G3UdI8VsbBe2k3E.nR8QeBEivJg- has been confirmed

Track | CTDB Status

1 | (3/3) Accurately ripped

2 | (3/3) Accurately ripped

3 | (3/3) Accurately ripped

4 | (3/3) Accurately ripped

5 | (3/3) Accurately ripped

6 | (3/3) Accurately ripped

7 | (3/3) Accurately ripped

8 | (3/3) Accurately ripped

9 | (3/3) Accurately ripped

10 | (3/3) Accurately ripped

11 | (3/3) Accurately ripped

12 | (3/3) Accurately ripped

avatar gilypo
Vom 19/11/2014
Spanien (Cantabria)
Verkäufer als Privatperson registriert.