Akzeptiert Angebote

PET SHOP BOYS - YES - CD - 2009 - DISCO VERIFICADO

Versand ab 5,50€
Zahlung tc Akzeptiert Zahlung tc

Anzahl der Artikel: 1

Zustand des Artikels: Normal (mit normalen Gebrauchsspuren)

El disco tiene pocas marcas y se ha verificado con precisión con el programa informático Exact Audio Copy (ver informe al final)

+++

Bajo ningún concepto se envía ordinario, todos los envíos son certificados

Gastos de envío gratis para pedidos superiores a 30 euros con destino a España peninsular

Vea coste de envío en el apartado "Formas de pago y envío"

Fotos reales del artículo

+++

Exact Audio Copy V1.6 from 23. October 2020

Archivo Log de extracciones desde 26. Enero 2023, 0:50

Pet Shop Boys / Yes, etc.

Usar unidad : HL-DT-STDVDRAM GSA-T50L Adapter: 1 ID: 0

Modo de Lectura : : Explosivo

Corrección de Desplazamiento de Lectura : : 667

Sobreleer tanto en Lead-In como en Lead-Out : No

Rellenar las muestras faltantes con silencios : Sí

Eliminar silencios inicial y final : No

Muestras nulas usadas en los calculos de CRC : Sí

Interfaz usada : Interfaz propio de Win32 para Windowns NT y 2000

Manejo de huecos : No se detectó, por lo que anexa a la pista anterior

Formato de Salida utilizado : : Rutinas WAV Internas

Formato de muestra : 44.100 Hz; 16 Bit; Estéreo

TOC extraídos del CD

Pista | Inicio | Longitud | Inicio del sector | Fin del sector

------------------------------------------------------------------

1 | 0:00.00 | 3:32.18 | 0 | 15917

2 | 3:32.18 | 3:50.69 | 15918 | 33236

3 | 7:23.12 | 3:41.54 | 33237 | 49865

4 | 11:04.66 | 3:41.26 | 49866 | 66466

5 | 14:46.17 | 4:47.29 | 66467 | 88020

6 | 19:33.46 | 4:56.55 | 88021 | 110275

7 | 24:30.26 | 3:49.53 | 110276 | 127503

8 | 28:20.04 | 5:31.31 | 127504 | 152359

9 | 33:51.35 | 3:42.41 | 152360 | 169050

10 | 37:34.01 | 4:43.67 | 169051 | 190342

11 | 42:17.68 | 6:20.50 | 190343 | 218892

Pista 1

Nombre de Archivo 01. Love etc..wav

Problema de Sincronización 0:00:00

Nivel Pico 99.6 %

Velocidad de extracción 4.5 X

Comprobación CRC B81292C2

Copiar CRC B81292C2

Extraida con precisión (confidencia 3) [5D7AE2DC] (AR v2)

Copia terminada

Pista 2

Nombre de Archivo 02. All Over the World.wav

Nivel Pico 99.8 %

Velocidad de extracción 5.0 X

Comprobación CRC 6F38940E

Copiar CRC 6F38940E

Extraida con precisión (confidencia 3) [6B4921B6] (AR v2)

Copia OK

Pista 3

Nombre de Archivo 03. Beautiful People.wav

Nivel Pico 99.8 %

Velocidad de extracción 5.5 X

Comprobación CRC C7418CFE

Copiar CRC C7418CFE

Extraida con precisión (confidencia 3) [3ED64286] (AR v2)

Copia OK

Pista 4

Nombre de Archivo 04. Did You See Me Coming.wav

Nivel Pico 99.8 %

Velocidad de extracción 5.9 X

Comprobación CRC B4A1D0F6

Copiar CRC B4A1D0F6

Extraida con precisión (confidencia 3) [E617A2FF] (AR v2)

Copia OK

Pista 5

Nombre de Archivo 05. Vulnerable.wav

Nivel Pico 99.8 %

Velocidad de extracción 6.4 X

Comprobación CRC C6FA8FBF

Copiar CRC C6FA8FBF

Extraida con precisión (confidencia 3) [493BE462] (AR v2)

Copia OK

Pista 6

Nombre de Archivo 06. More Than a Dream.wav

Nivel Pico 99.8 %

Velocidad de extracción 6.8 X

Comprobación CRC 2C23E217

Copiar CRC 2C23E217

Extraida con precisión (confidencia 3) [F8B8DB61] (AR v2)

Copia OK

Pista 7

Nombre de Archivo 07. Building a Wall.wav

Nivel Pico 99.8 %

Velocidad de extracción 7.0 X

Comprobación CRC B34488DC

Copiar CRC B34488DC

Extraida con precisión (confidencia 3) [F4B0B553] (AR v2)

Copia OK

Pista 8

Nombre de Archivo 08. King of Rome.wav

Problema de Sincronización 0:03:00 - 0:03:01

Nivel Pico 99.8 %

Velocidad de extracción 7.3 X

Comprobación CRC 9181BA15

Copiar CRC 9181BA15

Extraida con precisión (confidencia 3) [F7F6292E] (AR v2)

Copia terminada

Pista 9

Nombre de Archivo 09. Pandemonium.wav

Problema de Sincronización 0:01:27

Problema de Sincronización 0:01:54 - 0:01:55

Problema de Sincronización 0:03:15

Nivel Pico 99.8 %

Velocidad de extracción 8.0 X

Comprobación CRC 8257B10A

Copiar CRC 8257B10A

Extraida con precisión (confidencia 3) [CB9C08FC] (AR v2)

Copia terminada

Pista 10

Nombre de Archivo 10. The Way It Used to Be.wav

Nivel Pico 99.8 %

Velocidad de extracción 8.4 X

Comprobación CRC 2CF5085D

Copiar CRC 2CF5085D

Extraida con precisión (confidencia 3) [0ADF3B32] (AR v2)

Copia OK

Pista 11

Nombre de Archivo 11. Legacy.wav

Problema de Sincronización 0:06:05

Nivel Pico 99.6 %

Velocidad de extracción 8.1 X

Comprobación CRC F9C2816C

Copiar CRC F9C2816C

Extraida con precisión (confidencia 3) [D16C517E] (AR v2)

Copia terminada

Todas las pistas extraidas con precisión

Sin Errores

Final del Informe

---- CUETools DB Plugin V2.1.6

[CTDB TOCID: N0Cy0dHMkks7vg.Fd8OjDrVlW2k-] found

Submit result: N0Cy0dHMkks7vg.Fd8OjDrVlW2k- has been confirmed

Track | CTDB Status

1 | (935/939) Accurately ripped

2 | (934/939) Accurately ripped

3 | (935/939) Accurately ripped

4 | (934/939) Accurately ripped

5 | (932/939) Accurately ripped

6 | (935/939) Accurately ripped

7 | (935/939) Accurately ripped

8 | (933/939) Accurately ripped

9 | (934/939) Accurately ripped

10 | (932/939) Accurately ripped

11 | (929/939) Accurately ripped

avatar gilypo
Vom 19/11/2014
Spanien (Cantabria)
Verkäufer als Privatperson registriert.